منتديات الابداع
عزيزي الزائر / عزيزتي الزائرة يرجي التكرم بتسجبل الدخول اذا كنت عضو معنا
او التسجيل ان لم تكن عضو وترغب في الانضمام الي اسرة المنتدي سنتشرف بتسجيلك شكرا Surprised

ادارة المنتدي فجر الرحيل


منتديات الابداع

منتديات الابداع لكل العرب تثقيفية تعليمية ترفيهية
 
الرئيسيةالتسجيلدخول

شاطر | 
 

 Buried 2010 R5 Cam Audio H264 Feel-Free

استعرض الموضوع السابق استعرض الموضوع التالي اذهب الى الأسفل 
كاتب الموضوعرسالة
سهيل
نائب المدير
نائب المدير


ذكر
الاسد الثور
عدد المساهمات : 183
تاريخ الميلاد : 12/08/1985
تاريخ التسجيل : 16/04/2010
العمر : 31

مُساهمةموضوع: Buried 2010 R5 Cam Audio H264 Feel-Free   الجمعة نوفمبر 26, 2010 10:46 am

Buried 2010 R5 Cam Audio H264 Feel-Free







Genrerama | Mystery | Thriller
Language:English
IMDb:http://www.imdb.com/title/tt1462758/
SourceVD9/Audio:Imagine.Thx

General
Complete name :Buried 2010 R5 Cam audio H264 Feel-Free
Format : MPEG-4
Format profile : Base Media
Codec ID : isom
File size : 692 MiB
Duration : 1h 31mn
Overall bit rate : 1 061 Kbps
Video #2
Codec ID : avc1
Codec ID/Info : Advanced Video Coding
Duration : 1h 31mn
Bit rate mode : Variable
Bit rate : 955 Kbps
Width : 720 pixels
Height : 304 pixels
Display aspect ratio : 2.35:1
Frame rate mode : Constant
Frame rate : 29.970 fps
Original frame rate : 29.000 fps
Resolution : 24 bits
Colorimetry : 4:2:0
Scan type : Progressive
Bits/(Pixel*Frame) : 0.146
Stream size : 623 MiB (90%)
Audio #1
ID : 1
Format : AAC
Format/Info : Advanced Audio Codec
Format version : Version 4
Format profile : LC
Format settings, SBR : No
Codec ID : 40
Duration : 1h 31mn
Bit rate mode : Constant
Bit rate : 128 Kbps
Channel(s) : 2 channels
Channel positions : L R
Sampling rate : 48.0 KHz
Resolution : 16 bits
Stream size : 64.6 MiB (9%)

Plot:
Paul is a U.S. contractor working in Iraq. After an attack by a group of Iraqis he
wakes to find he is buried alive inside a coffin. With only a lighter and a cell phone it's
a race against time to escape this claustrophobic death trap.






[ Check Download Links ]
[ندعوك للتسجيل في المنتدى أو التعريف بنفسك لمعاينة هذا الرابط]
[ندعوك للتسجيل في المنتدى أو التعريف بنفسك لمعاينة هذا الرابط]
[ندعوك للتسجيل في المنتدى أو التعريف بنفسك لمعاينة هذا الرابط]
[ندعوك للتسجيل في المنتدى أو التعريف بنفسك لمعاينة هذا الرابط]
or
[ندعوك للتسجيل في المنتدى أو التعريف بنفسك لمعاينة هذا الرابط]
[ندعوك للتسجيل في المنتدى أو التعريف بنفسك لمعاينة هذا الرابط]
[ندعوك للتسجيل في المنتدى أو التعريف بنفسك لمعاينة هذا الرابط]
[ندعوك للتسجيل في المنتدى أو التعريف بنفسك لمعاينة هذا الرابط]


الرجوع الى أعلى الصفحة اذهب الى الأسفل
????
زائر



مُساهمةموضوع: رد: Buried 2010 R5 Cam Audio H264 Feel-Free   الجمعة نوفمبر 26, 2010 6:35 pm

شكرا لك وفقك الله
الرجوع الى أعلى الصفحة اذهب الى الأسفل
zakimansouria
كبار المشرفين


ذكر
الدلو الخنزير
عدد المساهمات : 1712
تاريخ الميلاد : 12/02/1995
تاريخ التسجيل : 08/11/2010
العمر : 21
المزاج المزاج : عالي

مُساهمةموضوع: رد: Buried 2010 R5 Cam Audio H264 Feel-Free   السبت نوفمبر 27, 2010 9:42 am

شكرااااااا لك واصل وفقك الله


الرجوع الى أعلى الصفحة اذهب الى الأسفل
!KAZANOVA!
تمييز وتواصل
تمييز وتواصل


ذكر
الثور القرد
عدد المساهمات : 2095
تاريخ الميلاد : 17/05/1992
تاريخ التسجيل : 23/11/2010
العمر : 24
المزاج المزاج : هادئ


مُساهمةموضوع: رد: Buried 2010 R5 Cam Audio H264 Feel-Free   الجمعة ديسمبر 03, 2010 2:52 pm

مشكووووووووووووووور
بارك الله فيك وجازاك اللاه خيراا
وجعلها في ميزان حسناتك



الرجوع الى أعلى الصفحة اذهب الى الأسفل
zakimansouria
كبار المشرفين


ذكر
الدلو الخنزير
عدد المساهمات : 1712
تاريخ الميلاد : 12/02/1995
تاريخ التسجيل : 08/11/2010
العمر : 21
المزاج المزاج : عالي

مُساهمةموضوع: رد: Buried 2010 R5 Cam Audio H264 Feel-Free   السبت ديسمبر 04, 2010 10:33 am

شكرااااااااااااااا لك اخي تحياتي


الرجوع الى أعلى الصفحة اذهب الى الأسفل
رجل العدالة
تمييز وتواصل
تمييز وتواصل


ذكر
الحمل الخنزير
عدد المساهمات : 100
تاريخ الميلاد : 03/04/1995
تاريخ التسجيل : 13/12/2010
العمر : 21

مُساهمةموضوع: رد: Buried 2010 R5 Cam Audio H264 Feel-Free   الثلاثاء ديسمبر 14, 2010 4:56 pm

شكرا بارك الله فيك
ننتظر جديدك
الرجوع الى أعلى الصفحة اذهب الى الأسفل
7amodi aguiro
كبار المشرفين


ذكر
السمك القرد
عدد المساهمات : 1557
تاريخ الميلاد : 14/03/1992
تاريخ التسجيل : 06/07/2010
العمر : 24

مُساهمةموضوع: رد: Buried 2010 R5 Cam Audio H264 Feel-Free   الخميس ديسمبر 16, 2010 4:03 pm

شكراااا على الموضوع
الرجوع الى أعلى الصفحة اذهب الى الأسفل
zakimansouria
كبار المشرفين


ذكر
الدلو الخنزير
عدد المساهمات : 1712
تاريخ الميلاد : 12/02/1995
تاريخ التسجيل : 08/11/2010
العمر : 21
المزاج المزاج : عالي

مُساهمةموضوع: رد: Buried 2010 R5 Cam Audio H264 Feel-Free   الثلاثاء ديسمبر 28, 2010 10:01 am

مشكووووووووووووووور بارك


الرجوع الى أعلى الصفحة اذهب الى الأسفل
 
Buried 2010 R5 Cam Audio H264 Feel-Free
استعرض الموضوع السابق استعرض الموضوع التالي الرجوع الى أعلى الصفحة 
صفحة 1 من اصل 1
 مواضيع مماثلة
-
» نتيجة الثانوية العامة 2010 هنا
» اكواد كول تون فودافون 2010
» كتالوج اوريفليم يوليو 2010
» جديد صور تامر حسني ومي عز الدين 2010
» CAPES 2010

صلاحيات هذا المنتدى:لاتستطيع الرد على المواضيع في هذا المنتدى
منتديات الابداع  :: تحميل افلام-
انتقل الى: