منتديات الابداع
عزيزي الزائر / عزيزتي الزائرة يرجي التكرم بتسجبل الدخول اذا كنت عضو معنا
او التسجيل ان لم تكن عضو وترغب في الانضمام الي اسرة المنتدي سنتشرف بتسجيلك شكرا Surprised

ادارة المنتدي فجر الرحيل


منتديات الابداع

منتديات الابداع لكل العرب تثقيفية تعليمية ترفيهية
 
الرئيسيةالتسجيلدخول

شاطر | 
 

 Tron: Legacy (2011)

استعرض الموضوع السابق استعرض الموضوع التالي اذهب الى الأسفل 
كاتب الموضوعرسالة
فجر الرحيل
المدير العــــام
المدير العــــام


ذكر
الحمل التِنِّين
عدد المساهمات : 1459
تاريخ الميلاد : 16/04/1988
تاريخ التسجيل : 20/03/2010
العمر : 28
المزاج المزاج : رايق

مُساهمةموضوع: Tron: Legacy (2011)   الجمعة يناير 21, 2011 2:35 pm




class="greet_block wpgb_cornered wpgb_shadowed">
class="greet_text">
href="http://adf.ly/246619/http://www.filesonic.com/premium">

style="clear:both">




Info
General
Complete name: TRON.Legacy.2010.TS.XViD.Hive-CM8.READNFO.avi
Format: AVI
Format/Info: Audio Video Interleave
File size: 1.54 GiB
Duration: 1h 57mn
Overall bit rate: 1 870 Kbps
Writing application: Nandub v1.0rc2
Writing library: Nandub build 1853/releaseVideo
ID: 0
Format: MPEG-4 Visual
Format profile: Advanced Simple@L5
Format settings, BVOP: Yes
Format settings, QPel: Yes
Format settings, GMC: No warppoints
Format settings, Matrix: Default (H.263)
Muxing mode: Packed bitstream
Codec ID: XVID
Codec ID/Hint: XviD
Duration: 1h 57mn
Bit rate: 1 604 Kbps
Width: 720 pixels
Height: 304 pixels
Display aspect ratio: 2.35:1
Frame rate: 23.976 fps
Color space: YUV
Chroma subsampling: 4:2:0
Bit depth: 8 bits
Scan type: Progressive
Bits/(Pixel*Frame): 0.306
Stream size: 1.32 GiB (86%)
Writing library: XviD 1.2.1 (UTC 2008-12-04)Audio
ID: 1
Format: AC-3
Format/Info: Audio Coding 3
Mode extension: CM (complete main)
Codec ID: 2000
Duration: 1h 57mn
Bit rate mode: Constant
Bit rate: 256 Kbps
Channel(s): 2 channels
Channel positions: Front: L R
Sampling rate: 48.0 KHz
Bit depth: 16 bits
Video delay: 24ms
Stream size: 215 MiB (14%)
Alignment: Split accross interleaves
Interleave, duration: 42 ms (1.00 video frame)
Interleave, preload duration: 500 ms

Cast
Jeff Bridges … Kevin Flynn / Clu
Garrett Hedlund … Sam Flynn
Olivia Wilde … Quorra
Bruce Boxleitner … Alan Bradley / Tron
James Frain … Jarvis
Beau Garrett … Gem
Michael Sheen … Castor / Zuse

Plot
Sam Flynn, the tech-savvy 27-year-old son of Kevin Flynn, looks into
his father’s disappearance and finds himself pulled into the same world
of fierce programs and gladiatorial games where his father has been
living for 20 years. Along with Kevin’s loyal confidant, father and son
embark on a life-and-death journey across a visually-stunning cyber
universe that has become far more advanced and exceedingly dangerous
Screens








Streaming
TRON Legacy 2010










[ندعوك للتسجيل في المنتدى أو التعريف بنفسك لمعاينة هذا الرابط]





[ندعوك للتسجيل في المنتدى أو التعريف بنفسك لمعاينة هذا الرابط]




عدل سابقا من قبل الزعيم في الجمعة يناير 21, 2011 2:39 pm عدل 1 مرات
الرجوع الى أعلى الصفحة اذهب الى الأسفل
فريال لعلاوي
تمييز وتواصل
تمييز وتواصل


انثى
العذراء الخنزير
عدد المساهمات : 256
تاريخ الميلاد : 03/09/1995
تاريخ التسجيل : 16/12/2010
العمر : 21
المزاج المزاج : ممتاز

مُساهمةموضوع: رد: Tron: Legacy (2011)   الجمعة يناير 21, 2011 2:38 pm

رائع سوف تتم المتابعة
الرجوع الى أعلى الصفحة اذهب الى الأسفل
سهيل
نائب المدير
نائب المدير


ذكر
الاسد الثور
عدد المساهمات : 183
تاريخ الميلاد : 12/08/1985
تاريخ التسجيل : 16/04/2010
العمر : 31

مُساهمةموضوع: رد: Tron: Legacy (2011)   الثلاثاء يناير 25, 2011 5:40 pm

السلام عليكم

اشكرك على الموضوع القيم



تقبل مروري



.


.
.
سهيل


الرجوع الى أعلى الصفحة اذهب الى الأسفل
 
Tron: Legacy (2011)
استعرض الموضوع السابق استعرض الموضوع التالي الرجوع الى أعلى الصفحة 
صفحة 1 من اصل 1
 مواضيع مماثلة
-
» لن نرضى بغير كأس اسيا2011
» حصريا وفبل الجميع مهرجان ابوح 2011
» حصريا عمرو حاحا مولد عين شمس 2011
» أول سيدة أسترالية سوف تزور الفضاء في 2011
» سيارة انفينيتي (Infiniti QX (2011

صلاحيات هذا المنتدى:لاتستطيع الرد على المواضيع في هذا المنتدى
منتديات الابداع  :: تحميل افلام-
انتقل الى: