منتديات الابداع
عزيزي الزائر / عزيزتي الزائرة يرجي التكرم بتسجبل الدخول اذا كنت عضو معنا
او التسجيل ان لم تكن عضو وترغب في الانضمام الي اسرة المنتدي سنتشرف بتسجيلك شكرا Surprised

ادارة المنتدي فجر الرحيل


منتديات الابداع

منتديات الابداع لكل العرب تثقيفية تعليمية ترفيهية
 
الرئيسيةالتسجيلدخول

شاطر | 
 

  Default The Devil's Tomb (2009) DVDRIp Xvid

استعرض الموضوع السابق استعرض الموضوع التالي اذهب الى الأسفل 
كاتب الموضوعرسالة
7amodi aguiro
كبار المشرفين


ذكر
السمك القرد
عدد المساهمات : 1557
تاريخ الميلاد : 14/03/1992
تاريخ التسجيل : 06/07/2010
العمر : 24

مُساهمةموضوع: Default The Devil's Tomb (2009) DVDRIp Xvid   الثلاثاء ديسمبر 21, 2010 11:34 am





Code:

File size : 709 MiB
Duration : 1h 26mn
Overall bit rate : 1 149 Kbps
Writing application : AVI-Mux GUI 1.17.8.3, Feb 16 201019:42:50

Video
ID : 0
Format : MPEG-4 Visual
Format profile : Advanced Simple@L5
Format settings, BVOP : Yes
Format settings, QPel : No
Format settings, GMC : No warppoints
Format settings, Matrix : Default (H.263)
Codec ID : XVID
Codec ID/Hint : XviD
Duration : 1h 26mn
Bit rate : 1 017 Kbps
Width : 608 pixels
Height : 336 pixels
Display aspect ratio : 16:9
Frame rate : 25.000 fps
Resolution : 8 bits
Colorimetry : 4:2:0
Scan type : Progressive
Bits/(Pixel*Frame) : 0.199
Stream size : 628 MiB (89%)
Writing library : XviD 1.2.1 (UTC 2008-12-04)

Audio
ID : 1
Format : MPEG Audio
Format version : Version 1
Format profile : Layer 3
Mode : Joint stereo
Codec ID : 55
Codec ID/Hint : MP3
Duration : 1h 26mn
Bit rate mode : Constant
Bit rate : 128 Kbps
Channel(s) : 2 channels
Sampling rate : 48.0 KHz
Stream size : 79.0 MiB (11%)
Alignment : Aligned on interleaves
Interleave, duration : 754 ms (18.85 video frames)
Interleave, preload duration : 216 ms
Title : VTS_01_1 T80 3_2ch 448Kbps DELAY 0ms
Writing library : LAME3.98r
Encoding settings : -m j -V 4 -q 2 -lowpass 17 -b 128


Code:

A team of mercenaries under the command of hard-charging war veteran Mack (Gooding Jr.), are contracted by a mysterious CIA operative named Elissa (Cruz) to rescue a scientist (Perlman) working on an archeological discovery deep under the Middle Eastern desert. With the help of a mysterious priest (Rollins), Mack and his team soon discover the true secret of what lies beneath the sands. A secret that has been protected for thousands of years. A secret that is not of this Earth.












Code:

http://hotfile.com/dl/76731213/9c7aa9a/T.D.Tomb.2009.by.smoking.rapid4all.org.part1.rar.html
[ندعوك للتسجيل في المنتدى أو التعريف بنفسك لمعاينة هذا الرابط]
[ندعوك للتسجيل في المنتدى أو التعريف بنفسك لمعاينة هذا الرابط]



Code:

http://www.filesonic.com/file/25725655/T.D.Tomb.2009.by.smoking.rapid4all.org.part2.rar
[ندعوك للتسجيل في المنتدى أو التعريف بنفسك لمعاينة هذا الرابط]
[ندعوك للتسجيل في المنتدى أو التعريف بنفسك لمعاينة هذا الرابط]



Code:

http://www.fileserve.com/file/XdEucA3
[ندعوك للتسجيل في المنتدى أو التعريف بنفسك لمعاينة هذا الرابط]
[ندعوك للتسجيل في المنتدى أو التعريف بنفسك لمعاينة هذا الرابط]



Code:

http://www.megaupload.com/?d=IGKN1QJN
[ندعوك للتسجيل في المنتدى أو التعريف بنفسك لمعاينة هذا الرابط]
[ندعوك للتسجيل في المنتدى أو التعريف بنفسك لمعاينة هذا الرابط]

الرجوع الى أعلى الصفحة اذهب الى الأسفل
!KAZANOVA!
تمييز وتواصل
تمييز وتواصل


ذكر
الثور القرد
عدد المساهمات : 2095
تاريخ الميلاد : 17/05/1992
تاريخ التسجيل : 23/11/2010
العمر : 24
المزاج المزاج : هادئ


مُساهمةموضوع: رد: Default The Devil's Tomb (2009) DVDRIp Xvid   الثلاثاء ديسمبر 21, 2010 12:02 pm

مشكووووووووووووووووووووووور
بارك الله
وجازاك الله خيراا
وجعلها في ميزان حسناتك



الرجوع الى أعلى الصفحة اذهب الى الأسفل
7amodi aguiro
كبار المشرفين


ذكر
السمك القرد
عدد المساهمات : 1557
تاريخ الميلاد : 14/03/1992
تاريخ التسجيل : 06/07/2010
العمر : 24

مُساهمةموضوع: رد: Default The Devil's Tomb (2009) DVDRIp Xvid   الثلاثاء ديسمبر 21, 2010 12:59 pm

شكرااا لقد مررت بنجاح
الرجوع الى أعلى الصفحة اذهب الى الأسفل
kacim.a
تمييز وتواصل
تمييز وتواصل


ذكر
العقرب الكلب
عدد المساهمات : 239
تاريخ الميلاد : 14/11/1994
تاريخ التسجيل : 10/11/2010
العمر : 22

مُساهمةموضوع: رد: Default The Devil's Tomb (2009) DVDRIp Xvid   الجمعة ديسمبر 24, 2010 7:25 pm

بارك الله فيك على هذا الابداع
الرجوع الى أعلى الصفحة اذهب الى الأسفل
zakimansouria
كبار المشرفين


ذكر
الدلو الخنزير
عدد المساهمات : 1712
تاريخ الميلاد : 12/02/1995
تاريخ التسجيل : 08/11/2010
العمر : 21
المزاج المزاج : عالي

مُساهمةموضوع: رد: Default The Devil's Tomb (2009) DVDRIp Xvid   الإثنين ديسمبر 27, 2010 12:12 pm

شكرا لك وفقك الله


الرجوع الى أعلى الصفحة اذهب الى الأسفل
 
Default The Devil's Tomb (2009) DVDRIp Xvid
استعرض الموضوع السابق استعرض الموضوع التالي الرجوع الى أعلى الصفحة 
صفحة 1 من اصل 1
 مواضيع مماثلة
-
» برنامج قوقل ايرث 2009
» مجموعة عبايات صيف 2009
» أزياء صيف 2009 للمحجبات
» احدث سيارة 2009(سيارة برمائية)
» البوم طارق الشيخ الجديد ندم عمرك 2009

صلاحيات هذا المنتدى:لاتستطيع الرد على المواضيع في هذا المنتدى
منتديات الابداع  :: تحميل افلام-
انتقل الى: